1000000-DvD-CD.ru
Ещё делаем вручную сложные MIX футболки (Ваша картинка + надпись VIP плёнкой!) ЭкСкЛюЗиВ
▼▼Новые SUPER категории ВНИЗУ !▼▼
КорзинаКорзина
на сумму: руб.
Вы пока ничего не выбрали
ИзбранноеИзбранное
Онлайн 18+ ❤ Наша ХХХ гр.Вконтакте ►СЮДА!
В продаже (миллион) Игр, Кино, Музыки, Программ и всё в наличии!
Скидка! 20-50%

New! Поиск:
Выше можно уточнить категорию

Казачий круг - Теперь черед тебе служить...

Купить Казачий круг - Теперь черед тебе служить... в нашем интернет магазине dvd cd дисков 1000000-dvd-cd.ru
Увеличить
Поделитесь интересным товаром с друзьями:
Количество CD: 1 шт.

распродажа 50%
для вступивших в одну из наших групп
(Группа ВК) . . . (Группа ОК) , Фольклор, Народная и Этническая музыка, Восточноевропейский фолк (lossless), Восточноевропейский фолк

Стоимость: 160 руб. 80 руб.
Добавить в избранное
Удалить из избранного
Купить (добавить в корзину) - Сейчас в наличии!
В корзине × Оформить заказ
Купить Казачий круг - Теперь черед тебе служить... в интернет магазине dvd cd дисков 1000000-DvD-CD.ru у нас недорого! Если заказать двд сд по предоплате, то на 20% будет ещё дешевле!
Казачий круг - Теперь черед тебе служить...
Жанр: Казачья песня
Год выпуска диска: 2007
Производитель диска: Россия
Аудио кодек: APE
Тип рипа: image+.cue
Битрейт аудио: lossless
Продолжительность: 57:27
Трэклист:
01. Дело было под Полтавой
02. Эй, жавроненок ты мой
03. Ой как под грушей, грушею
04. Как у нашего соседа
05. Конь боевой с походным вьюком
06. Ой, да ты калинушка
07. Комарь
08. Проснется день красы моей
09. Русский белый царь желает
10. Эсминец Суровый
Доп. информация: Сканы буклета вложены
Отчёт ЕАС
Exact Audio Copy V0.99 prebeta 4 from 23. January 2008
Отчёт EAC об извлечении, выполненном 27. сентября 2009, 18:54
Казачий Кругъ / Теперь черед тебе служить...
Дисковод: ASUS CRW-5224A Adapter: 0 ID: 0
Режим чтения : Достоверность
Использование точного потока : Да
Отключение кэша аудио : Да
Использование указателей C2 : Нет
Коррекция смещения при чтении : 6
Способность читать области Lead-in и Lead-out : Нет
Заполнение пропущенных сэмплов тишиной : Да
Удаление блоков с тишиной в начале и конце : Нет
При вычислениях CRC использовались нулевые сэмплы : Да
Интерфейс : Встроенный Win32-интерфейс для Win NT/2000
Выходной формат : Monkey's Audio Lossless Encoder v3.99 DLL
Формат сэмплов : Normal Lossless Compression
TOC извлечённого CD
Трек | Старт | Длительность | Начальный сектор | Конечный сектор
---------------------------------------------------------------------
1 | 0:00.00 | 4:38.47 | 0 | 20896
2 | 4:38.47 | 9:07.25 | 20897 | 61946
3 | 13:45.72 | 5:26.74 | 61947 | 86470
4 | 19:12.71 | 3:06.03 | 86471 | 100423
5 | 22:18.74 | 8:51.25 | 100424 | 140273
6 | 31:10.24 | 7:16.62 | 140274 | 173035
7 | 38:27.11 | 5:05.45 | 173036 | 195955
8 | 43:32.56 | 5:21.04 | 195956 | 220034
9 | 48:53.60 | 5:13.25 | 220035 | 243534
10 | 54:07.10 | 3:20.10 | 243535 | 258544
Характеристики диапазона извлечения и сообщения об ошибках
Выбранный диапазон
Имя файла E:\2. Лосслесс\2. Народное\Казаки\Казачий круг\2007 - Теперь черед тебе служить\Казачий Кругъ - Теперь черед тебе служить....ape
Пиковый уровень 96.6 %
Качество диапазона 99.9 %
CRC копии E767EEBD
Копирование... OK
Ошибок не произошло
Конец отчёта
Купить товар с надписью «Казачий круг» (или изменить надпись «Казачий круг» по вашему вкусу!)
Футболка мужская INNOVATION (имитация хлопка) белая
Футболка мужская INNOVATION (имитация хлопка) белая :
Стоимость: 500 руб.
Футболка мужская INNOVATION (имитация хлопка) белая
Футболка мужская INNOVATION (имитация хлопка) белая :
Стоимость: 500 руб.
Футболка мужская REDFORT (двухслойная) белая
Футболка мужская REDFORT (двухслойная) белая :
Стоимость: 500 руб.
Футболка мужская REDFORT (двухслойная) белая
Футболка мужская REDFORT (двухслойная) белая :
Стоимость: 500 руб.
Футболка женская INNOVATION (имитация хлопка) белая
Футболка женская INNOVATION (имитация хлопка) белая :
Стоимость: 500 руб.
Футболка женская INNOVATION (имитация хлопка) белая
Футболка женская INNOVATION (имитация хлопка) белая :
Стоимость: 500 руб.
Футболка женская REDFORT (двухслойная) белая
Футболка женская REDFORT (двухслойная) белая :
Стоимость: 500 руб.
Футболка женская REDFORT (двухслойная) белая
Футболка женская REDFORT (двухслойная) белая :
Стоимость: 500 руб.
Футболка детская INNOVATION (имитация хлопка) белая
Футболка детская INNOVATION (имитация хлопка) белая :
Стоимость: 500 руб.
Футболка детская REDFORT (двухслойная) белая
Футболка детская REDFORT (двухслойная) белая :
Стоимость: 500 руб.
Кружка стандарт белая
Кружка стандарт белая :
Стоимость: 250 руб.
Кружка белая, темно-красная внутри
Кружка белая, темно-красная внутри :
Стоимость: 250 руб.
Кружка белая, внутри чёрная
Кружка белая, внутри чёрная :
Стоимость: 250 руб.
Кружка белая, золотая желтая внутри
Кружка белая, золотая желтая внутри :
Стоимость: 250 руб.
Кружка белая, темно-синяя внутри и ручка
Кружка белая, темно-синяя внутри и ручка :
Стоимость: 250 руб.
Кружка белая, темно-синяя внутри и ручка
Кружка белая, темно-синяя внутри и ручка :
Стоимость: 250 руб.
Кружка белая, розовая внутри и ручка
Кружка белая, розовая внутри и ручка :
Стоимость: 250 руб.
Кружка белая, розовая внутри и ручка
Кружка белая, розовая внутри и ручка :
Стоимость: 250 руб.
Кружка белая, светло-зеленая внутри и ручка
Кружка белая, светло-зеленая внутри и ручка :
Стоимость: 250 руб.
Кружка белая, светло-зеленая внутри и ручка
Кружка белая, светло-зеленая внутри и ручка :
Стоимость: 250 руб.
Кружка белая, светло-синяя внутри и ручка
Кружка белая, светло-синяя внутри и ручка :
Стоимость: 250 руб.
Кружка белая, жёлтая внутри и ручка
Кружка белая, жёлтая внутри и ручка :
Стоимость: 250 руб.
Кружка белая, темно-зеленая внутри и ручка
Кружка белая, темно-зеленая внутри и ручка :
Стоимость: 250 руб.
Кружка белая, темно-красная внутри и ручка
Кружка белая, темно-красная внутри и ручка :
Стоимость: 250 руб.
Кружка белая, со светло-жёлтыми ручкой и ободком
Кружка белая, со светло-жёлтыми ручкой и ободком :
Стоимость: 250 руб.
Кружка белая, с темно-красной ручкой и ободком
Кружка белая, с темно-красной ручкой и ободком :
Стоимость: 250 руб.
Кружка белая, со светло-синей ручкой и ободком
Кружка белая, со светло-синей ручкой и ободком :
Стоимость: 250 руб.
Кружка белая, оранжевая ручка и ободок
Кружка белая, оранжевая ручка и ободок :
Стоимость: 250 руб.
Кружка флуоресцентная
Кружка флуоресцентная :
Стоимость: 350 руб.
Пазл Магнитный СЕРДЦЕ (76 элементов)
Пазл Магнитный СЕРДЦЕ (76 элементов) :
Стоимость: 250 руб.
Пазл Магнитный A4 (9x14 элементов)
Пазл Магнитный A4 (9x14 элементов) :
Стоимость: 250 руб.
Пазл Магнитный A4 (9x14 элементов)
Пазл Магнитный A4 (9x14 элементов) :
Стоимость: 250 руб.
Пазл Магнитный А5 (7x9 элементов)
Пазл Магнитный А5 (7x9 элементов) :
Стоимость: 200 руб.
Пазл СЕРДЦЕ (75 элементов)
Пазл СЕРДЦЕ (75 элементов) :
Стоимость: 250 руб.
Пазл А4 (120 элементов)
Пазл А4 (120 элементов) :
Стоимость: 200 руб.
Пазл А4 (120 элементов)
Пазл А4 (120 элементов) :
Стоимость: 200 руб.
Пазл А3 (300 элементов)
Пазл А3 (300 элементов) :
Стоимость: 250 руб.
Пазл СЕРДЦЕ деревянный (МДФ 23 детали)
Пазл СЕРДЦЕ деревянный (МДФ 23 детали) :
Стоимость: 400 руб.
Пазл деревянный А4 (МДФ 60 деталей)
Пазл деревянный А4 (МДФ 60 деталей) :
Стоимость: 600 руб.
Пазл деревянный А4 (МДФ 60 деталей)
Пазл деревянный А4 (МДФ 60 деталей) :
Стоимость: 600 руб.
Похожие товары:
 
Более миллиона DVD CD дисков и все в наличии! Игры, караоке, программы, игры, музыка, фильмы, сериалы. Ещё у нас можно, редкую музыку слушать онлайн бесплатно!
Пишите нам